House of Mouse 720p HDTV – Donald’s Lamp Trade

Posted: Ιανουαρίου 21, 2011 in Ταινίες
Ετικέτες:

ΜΕΤΑΓΛΩΤΙΣΜΕΝΟ

Σειρά κινουμένων σχεδίων, παραγωγής DISNEY με πρωταγωνιστές τους διασημότερους σταρ των κινουμένων σχεδίων. Όλοι οι ήρωες συχνάζουν στο κλαμπ «House of Mouse» όπου παρακολουθούν και σχολιάζουν τους συναδέλφους τους που παρουσιάζουν νέα κωμικά σκετς. Ο Μίκυ Μάους, η Πεντάμορφη και το Τέρας, ο Αλαντίν, ο Σκρουτζ Μακ Ντακ, ο Ντόναλντ, η Μίνυ, ο Γκούφυ, ο Πλούτο και η Νταίζυ, όλοι περνούν από το κλαμπ. Την ίδια στιγμή ο ιδιοκτήτης του κτιρίου, ο τυραννικός Πέτε, απειλεί να κλείσει το κλαμπ. Η παρέα όμως καταφέρνει να ξεπερνά τα εμπόδια, μια που το σόου …πρέπει να συνεχιστεί!

Animation | Comedy | Family
Director:
Disney
Writers:
Disney
Stars:
Wayne Allwine, Bill Farmer and Rod Roddy
http://www.imdb.com/title/tt0272388/
7,5/10
Users:
(324 votes)
Cast:
Wayne Allwine,
Bill Farmer and
Rod Roddy

Video
ID                               : 1
Format                           : AVC
Format/Info                      : Advanced Video Codec
Format profile                   : High@L3.1
Format settings, CABAC           : Yes
Format settings, ReFrames        : 2 frames
Format settings, GOP             : M=1, N=3
Muxing mode                      : Header stripping
Codec ID                         : V_MPEG4/ISO/AVC
Duration                         : 22mn 5s
Bit rate                         : 2 784 Kbps
Width                            : 1 280 pixels
Height                           : 720 pixels
Display aspect ratio             : 16:9
Frame rate                       : 25.000 fps
Color space                      : YUV
Chroma subsampling               : 4:2:0
Bit depth                        : 8 bits
Scan type                        : Progressive
Bits/(Pixel*Frame)               : 0.121
Stream size                      : 429 MiB (82%)
Writing library                  : x264 core 68 r1183M f21daff
------------------------------------------------------------------
Audio #1
ID                               : 2
Format                           : AC-3
Format/Info                      : Audio Coding 3
Mode extension                   : CM (complete main)
Muxing mode                      : Header stripping
Codec ID                         : A_AC3
Duration                         : 22mn 5s
Bit rate mode                    : Constant
Bit rate                         : 128 Kbps
Channel(s)                       : 2 channels
Channel positions                : Front: L R
Sampling rate                    : 48.0 KHz
Bit depth                        : 16 bits
Video delay                      : 10ms
Stream size                      : 20.2 MiB (4%)
Language                         : Greek

MultiUpload

http://www.multiupload.com/5LLJEUS626
http://www.multiupload.com/K2QE7I0VON

Rapidshare

http://rapidshare.com/files/443542923/HoMDonald_sLampTrade.part1.rar
http://rapidshare.com/files/443543803/HoMDonald_sLampTrade.part2.rar

Megaupload

http://www.megaupload.com/?d=8QPVZ843
http://www.megaupload.com/?d=KUNS61AT

Depositfiles

http://depositfiles.com/files/bl957jh2l
http://depositfiles.com/files/nk944ovwh

Uploading.com

http://uploading.com/files/ff32m527/HoMDonald%2527sLampTrade.part1.rar/
http://uploading.com/files/d6aceac6/HoMDonald%2527sLampTrade.part2.rar/

ΧΡΕΙΑΣΤΗΚΑΝ ΩΡΕΣ ΓΙΑ ΤΟ UPLOAD..
ΧΡΕΙΑΣΤΗΚΑΝ 10′ ΓΙΑ ΝΑ ΦΤΙΑΧΤΕΙ ΑΥΤΟ ΤΟ POST..
ΧΡΕΙΑΖΟΝΤΑΙ ΜΟΝΟ 7″ ΓΙΑ ΝΑ ΠΕΙΤΕ ΕΝΑ ΕΥΧΑΡΙΣΤΩ..

Σχολιάστε

Εισάγετε τα παρακάτω στοιχεία ή επιλέξτε ένα εικονίδιο για να συνδεθείτε:

Λογότυπο WordPress.com

Σχολιάζετε χρησιμοποιώντας τον λογαριασμό WordPress.com. Αποσύνδεση / Αλλαγή )

Φωτογραφία Twitter

Σχολιάζετε χρησιμοποιώντας τον λογαριασμό Twitter. Αποσύνδεση / Αλλαγή )

Φωτογραφία Facebook

Σχολιάζετε χρησιμοποιώντας τον λογαριασμό Facebook. Αποσύνδεση / Αλλαγή )

Φωτογραφία Google+

Σχολιάζετε χρησιμοποιώντας τον λογαριασμό Google+. Αποσύνδεση / Αλλαγή )

Σύνδεση με %s